Pokemon Detective Pikachu 2019 English Starshine free download torrent

Download link

In a world where people collect Pokmon to do battle| a boy comes across an intelligent talking Pikachu who seeks to be a detective.

Format : AVC

Format/Info : Advanced Video Codec

Format profile :

Format settings : CABAC / 5 Ref Frames

Format settings, CABAC : Yes

Format settings, ReFrames : 5 frames

Codec ID : avc1

Codec ID/Info : Advanced Video Coding

Duration : 1 h 37 min

Bit rate : 1 100 kb/s

Width : 720 pixels

Height : 300 pixels

Display aspect ratio : :1

Frame rate mode : Constant

Frame rate : FPS

Color space : YUV

Chroma subsampling : 4:2:0

Bit depth : 8 bits

Scan type : Progressive

Bits/(Pixel*Frame) :

Stream size : 774 MiB (81%)

Title :

Writing library : x264 core 148 r2795M aaa9aa8

Encoding settings : cabac=1 / ref=5 / deblock=1:-1:-1 / analyse=0x3:0x113 / me=umh / subme=9 / psy=1 / psy_rd= / mixed_ref=1 / me_range=16 / chroma_me=1 / trellis=2 / 8x8dct=1 / cqm=0 / deadzone=21,11 / fast_pskip=1 / chroma_qp_offset=-3 / threads=24 / lookahead_threads=2 / sliced_threads=0 / nr=0 / decimate=1 / interlaced=0 / bluray_compat=0 / constrained_intra=0 / bframes=3 / b_pyramid=2 / b_adapt=2 / b_bias=0 / direct=3 / weightb=1 / open_gop=0 / weightp=2 / keyint=250 / keyint_min=25 / scenecut=40 / intra_refresh=0 / rc_lookahead=50 / rc=abr / mbtree=1 / bitrate=1100 / ratetol= / qcomp= / qpmin=0 / qpmax=69 / qpstep=4 / ip_ratio= / aq=1

Language : English

Codec configuration box : avcC

Format : AAC LC

Format/Info : Advanced Audio Codec Low Complexity

Codec ID : mp4a-40-2

Duration : 1 h 37 min

Bit rate mode : Constant

Bit rate : 256 kb/s

Channel(s) : 2 channels

Channel layout : L R

Sampling rate : kHz

Frame rate : FPS (1024 SPF)

Compression mode : Lossy

Stream size : 178 MiB (19%)

Title :

Language : English

Default : Yes

Alternate group : 1

. Cats 2019 HDrip English pirate Movie Download Torrent

Pokemon Detective Pikachu 2019

40 1 User Rating